Клетка для чудаков / Клетка для безумцев / La cage aux folles
Страна: Франция, Италия
Студия: Da Ma Produzione, Les Productions Artistes Associés
Жанр: комедия
Год выпуска: 1978
Продолжительность: 01:36:57
Перевод 1: Профессиональный (многоголосый закадровый)
Перевод 2: Профессиональный (многоголосый закадровый)
Субтитры: английские
Оригинальная аудиодорожка: французский
Режиссер: Эдуар Молинаро / Edouard Molinaro
В ролях: Уго Тоньяцци, Мишель Серро, Клер Морье, Реми Лоран, Кармен Скарпитта, Бенни Люк, Луиза Манери, Мишель Галабрю, Венантино Венантини, Карло Реали и др.
Описание: Сын гомосексуалиста собирается жениться на девушке из приличной семьи, отец которой является одним из руководителей партии морального порядка. Если её родители узнают о сексуальной ориентации отца жениха, произойдёт большой скандал…
II Сэмпл II IMDB II
Доп. информация:
Перевод 1 – голос наложен на английский дубляж
Перевод 2 – голос наложен на французский оригинал
Тип релиза: BDRemux 1080p
Контейнер: MKV
Видео: AVC / 1920x1080 / 16:9 / 23.976fps / 34995Kbps / High@L4.1
Аудио 1: AC3 / 48.0 KHz / 2ch. / 192kbps / Rus / MVO
Аудио 2: AC3 / 48.0 KHz / 2ch. / 192kbps / Rus / MVO
Аудио 3: DTS-HD MA / 48.0 KHz / 1ch / 1024kbps / 24bit (DTS Core 48.0 KHz / 1ch / 768kbps / 24bit) Fre
Формат субтитров: softsub (SRT)

MediaInfo

Общее
Уникальный идентификатор : 204860746908700345006150862821568475702 (0x9A1EBEA402A985A48DB48590675EF236)
Полное имя : E:\!_HD\New\La.cage.aux.folles.1978.BDRemux.1080p_by_vedigo.mkv
Формат : Matroska
Версия формата : Version 4 / Version 2
Размер файла : 24,6 Гбайт
Продолжительность : 1 ч. 36 м.
Режим общего битрейта : Переменный
Общий поток : 36,3 Мбит/сек
Название фильма : La.cage.aux.folles.1978.BDRemux.1080p_by_vedigo
Дата кодирования : UTC 2016-12-08 02:24:01
Программа кодирования : mkvmerge v9.6.0 ('Slave To Your Mind') 64bit
Библиотека кодирования : libebml v1.3.4 + libmatroska v1.4.5
Видео
Идентификатор : 1
Формат : AVC
Формат/Информация : Advanced Video Codec
Профиль формата : High@L4.1
Параметр CABAC формата : Да
Параметр ReFrames формата : 4 кадра
Идентификатор кодека : V_MPEG4/ISO/AVC
Продолжительность : 1 ч. 36 м.
Вид битрейта : Переменный
Битрейт : 34,9 Мбит/сек
Максимальный битрейт : 37,0 Мбит/сек
Ширина : 1920 пикселей
Высота : 1080 пикселей
Соотношение сторон : 16:9
Режим частоты кадров : Постоянный
Частота кадров : 23,976 (24000/1001) кадра/сек
Цветовое пространство : YUV
Субдискретизация насыщенности : 4:2:0
Битовая глубина : 8 бит
Тип развёртки : Прогрессивная
Бит/(Пиксели*Кадры) : 0.701
Размер потока : 23,6 Гбайт (96%)
Заголовок : La.cage.aux.folles.1978.BDRemux.1080p_by_vedigo
Default : Да
Forced : Нет
Аудио #1
Идентификатор : 2
Формат : AC-3
Формат/Информация : Audio Coding 3
Расширение режима : CM (complete main)
Параметр Endianness формата : Big
Идентификатор кодека : A_AC3
Продолжительность : 1 ч. 36 м.
Вид битрейта : Постоянный
Битрейт : 192 Кбит/сек
Каналы : 2 канала
Расположение каналов : Front: L R
Частота : 48,0 КГц
Частота кадров : 31,250 кадров/сек (1536 spf)
Битовая глубина : 16 бит
Метод сжатия : С потерями
Размер потока : 133 Мбайт (1%)
Заголовок : MVO
Язык : Russian
Default : Да
Forced : Нет
Аудио #2
Идентификатор : 3
Формат : AC-3
Формат/Информация : Audio Coding 3
Расширение режима : CM (complete main)
Параметр Endianness формата : Big
Идентификатор кодека : A_AC3
Продолжительность : 1 ч. 36 м.
Вид битрейта : Постоянный
Битрейт : 192 Кбит/сек
Каналы : 2 канала
Расположение каналов : Front: L R
Частота : 48,0 КГц
Частота кадров : 31,250 кадров/сек (1536 spf)
Битовая глубина : 16 бит
Метод сжатия : С потерями
Размер потока : 133 Мбайт (1%)
Заголовок : MVO
Язык : Russian
Default : Нет
Forced : Нет
Аудио #3
Идентификатор : 4
Формат : DTS
Формат/Информация : Digital Theater Systems
Профиль формата : MA / Core
Режим : 16
Параметр Endianness формата : Big
Идентификатор кодека : A_DTS
Продолжительность : 1 ч. 36 м.
Вид битрейта : Переменный / Постоянный
Битрейт : 1024 Кбит/сек / 768 Кбит/сек
Каналы : 1 канал
Расположение каналов : Front: C
Частота : 48,0 КГц
Частота кадров : 93,750 кадра/сек (512 spf)
Битовая глубина : 24 бит
Метод сжатия : Без потерь / Lossy
Размер потока : 717 Мбайт (3%)
Заголовок : Original
Язык : French
Default : Нет
Forced : Нет
Текст
Идентификатор : 5
Формат : UTF-8
Идентификатор кодека : S_TEXT/UTF8
Идентификатор кодека/Информация : UTF-8 Plain Text
Продолжительность : 1 ч. 33 м.
Битрейт : 55 бит/сек
Count of elements : 1276
Размер потока : 38,1 Кбайт (0%)
Заголовок : Subtitlee eng
Язык : English
Default : Нет
Forced : Нет
Меню
00:00:00.000 : en:00:00:00.000
00:03:05.894 : en:00:03:05.894
00:10:15.990 : en:00:10:15.990
00:13:50.913 : en:00:13:50.913
00:18:38.451 : en:00:18:38.451
00:22:09.703 : en:00:22:09.703
00:26:08.108 : en:00:26:08.108
00:29:04.326 : en:00:29:04.326
00:32:48.717 : en:00:32:48.717
00:34:51.214 : en:00:34:51.214
00:40:15.038 : en:00:40:15.038
00:45:33.356 : en:00:45:33.356
00:53:02.888 : en:00:53:02.888
01:00:02.766 : en:01:00:02.766
01:06:05.753 : en:01:06:05.753
01:11:34.707 : en:01:11:34.707
01:16:16.655 : en:01:16:16.655
01:23:26.543 : en:01:23:26.543
01:25:24.494 : en:01:25:24.494
01:28:05.322 : en:01:28:05.322
01:35:42.111 : en:01:35:42.111

Скриншоты


Сведения об исходнике

VIDEO:
Codec Bitrate Description
----- ------- -----------
MPEG-4 AVC Video 34995 kbps 1080p / 23,976 fps / 16:9 / High Profile 4.1
AUDIO:
Codec Language Bitrate Description
----- -------- ------- -----------
LPCM Audio French 1152 kbps 1.0 / 48 kHz / 1152 kbps / 24-bit
SUBTITLES:
Codec Language Bitrate Description
----- -------- ------- -----------
Presentation Graphics English 46,677 kbps